<?xml version="1.0" standalone="no"?>
<!DOCTYPE svg PUBLIC "-//W3C//DTD SVG 1.1//EN" "http://www.w3.org/Graphics/SVG/1.1/DTD/svg11.dtd" >
<svg xmlns="http://www.w3.org/2000/svg">
<metadata>Generated by IcoMoon</metadata>
<defs>
<font id="icomoon" horiz-adv-x="1024">
<font-face units-per-em="1024" ascent="960" descent="-64" />
<missing-glyph horiz-adv-x="1024" />
<glyph unicode="&#x20;" horiz-adv-x="512" d="" />
<glyph unicode="&#xe900;" glyph-name="file" d="M363.52 857.6h-184.32c-20.48 0-40.96-15.36-40.96-40.96v-153.6h35.84v153.6h184.32v-76.8h486.4v-76.8h35.84v76.8c0 20.48-15.36 40.96-35.84 40.96h-445.44v35.84c0 25.6-15.36 40.96-35.84 40.96zM102.4 586.24v-506.88c0-25.6 15.36-40.96 35.84-40.96h742.4c20.48 0 35.84 15.36 35.84 40.96v506.88c0 20.48-15.36 40.96-35.84 40.96h-742.4c-20.48-5.12-35.84-20.48-35.84-40.96zM138.24 586.24h742.4v-506.88h-742.4v506.88z" />
<glyph unicode="&#xe901;" glyph-name="file1" d="M317.68 157.216v642.176h-56.080c-31.525-0.009-57.079-25.563-57.088-57.087v-342.497h-11.952c-31.52 0-49.76-25.552-49.76-57.088v-285.408c0-31.52 18.24-57.088 49.76-57.088h638.848l-456.64 96.752c-35.536 7.312-57.088 28.72-57.088 60.24zM824.096 795.872l-413.84 99.888c-31.529 0-57.088-25.559-57.088-57.088v-656.432c0-31.52 22.688-49.696 57.088-54.992l470.912-108.272v719.808c0 31.523-25.55 57.079-57.071 57.088h-0.001zM825.168 290.848l-372.32 0.064c-4.878 0-8.832 3.954-8.832 8.832v0c0 20.384 3.328 33.088 9.904 49.696 1.616 4.4 3.424 8.736 5.424 13.008 9.534 21.361 22.225 39.606 37.708 55.053l0.004 0.003c22.922 22.99 52.001 39.831 84.554 47.838l1.238 0.258c-9.394 4.976-17.492 10.741-24.737 17.418l0.081-0.074-1.616 1.504c-1.38 1.316-2.684 2.62-3.956 3.954l-0.044 0.046-1.504 1.616-0.368 0.4c-16.734 18.268-27.666 42.097-29.735 68.417l-0.025 0.399-0.016 0.256-0.16 2.448-0.032 0.512c-0.029 0.565-0.057 1.375-0.077 2.186l-0.003 0.134-0.032 0.656c-0.017 0.85-0.029 1.883-0.032 2.917v0.043l0.032 2.96c0.011 0.156 0.017 0.337 0.017 0.52 0 0.037 0 0.073-0.001 0.109v-0.006l0.096 2.336 0.192 2.976 0.016 0.224c2.163 27.687 13.824 52.301 31.686 70.92l-0.038-0.040 1.952 2 0.72 0.704 1.28 1.248c18.575 17.83 43.191 29.492 70.484 31.623l0.396 0.025 0.24 0.016 2.976 0.192 2.336 0.080 0.64 0.032 2.96 0.032 2.96-0.032 0.64-0.016 2.336-0.096 3.2-0.208c26.73-2.092 50.57-13.024 68.935-29.838l-0.087 0.078 0.176-0.16 1.84-1.712c1.942-1.856 3.779-3.734 5.552-5.671l0.080-0.089 0.224-0.24c16.743-18.274 27.678-42.117 29.735-68.452l0.025-0.396 0.016-0.24 0.192-2.976 0.096-2.336 0.016-0.624c0.032-0.976 0.032-1.968 0.032-2.96v-0.016l-0.032-2.944-0.016-0.656-0.096-2.32-0.032-0.512-0.16-2.448-0.016-0.256c-2.101-26.71-13.025-50.531-29.823-68.887l0.079 0.087-0.592-0.64-1.296-1.392c-1.318-1.389-2.627-2.698-3.97-3.972l-0.046-0.044-1.52-1.424-0.496-0.448c-6.037-5.512-12.766-10.457-19.988-14.646l-0.556-0.298c24.392-5.662 45.804-15.832 64.321-29.665l-0.449 0.321c0.325-0.189 0.596-0.369 0.857-0.562l-0.025 0.018c22.614-16.977 40.976-38.345 54.064-62.946l0.496-1.022c13.296-25.52 20.256-42.992 20.912-71.36v-0.016l0.032-2.288c0-0.033 0.001-0.073 0.001-0.112 0-5.003-4.029-9.066-9.020-9.119h-0.005zM796.784 365.184c-12.166 22.961-28.586 42.122-48.37 57.065l-0.43 0.311c-0.473 0.292-0.87 0.566-1.252 0.858l0.036-0.026c-16.138 12.033-35.252 21.098-55.986 25.955l-1.038 0.205c-8.255 2.007-14.289 9.336-14.289 18.074 0 6.85 3.707 12.833 9.225 16.054l0.088 0.048c6.524 3.768 12.168 7.919 17.308 12.612l-0.076-0.068 0.096 0.080 0.368 0.336 0.064 0.064 1.2 1.12c1.152 1.104 2.288 2.24 3.376 3.392l0.88 0.944 0.192 0.224 0.016 0.016 0.32 0.336 0.16 0.16c14.075 15.316 23.258 35.327 24.956 57.433l0.020 0.327 0.032 0.304c0.027 0.283 0.073 0.976 0.113 1.67l0.015 0.33 0.016 0.384v0.064l0.064 1.92v0.064l0.016 0.4v0.144l0.032 2.448-0.032 2.464v0.080l-0.016 0.416v0.048l-0.064 1.904v0.048l-0.016 0.416-0.128 2.032-0.016 0.192v0.080c-1.727 22.413-10.889 42.408-24.993 57.8l0.065-0.072-0.24 0.256-1.392 1.504c-1.586 1.664-3.192 3.235-4.852 4.748l-0.076 0.068-0.224 0.208c-15.306 14.040-35.293 23.199-57.37 24.892l-0.326 0.020h-0.032l-0.256 0.016-1.984 0.128-0.432 0.032h-0.048l-2.384 0.080h-0.096l-2.464 0.032-2.528-0.032-0.528-0.016-1.92-0.064-0.448-0.032-2.032-0.128-0.192-0.016h-0.064c-11.766-0.921-22.638-3.804-32.608-8.327l0.608 0.247c-10.958-4.965-20.334-11.448-28.352-19.311l0.016 0.015-0.848-0.848-0.192-0.208-0.608-0.608-0.864-0.88c-7.482-7.799-13.692-16.892-18.249-26.898l-0.247-0.606c-4.276-9.362-7.159-20.234-8.059-31.664l-0.021-0.336v-0.080l-0.016-0.208-0.128-1.984v-0.048l-0.016-0.384v-0.048l-0.064-1.92-0.016-0.464v-0.096c-0.017-0.704-0.029-1.562-0.032-2.422v-0.026l0.032-2.448v-0.096l0.016-0.496 0.064-1.904v-0.048l0.032-0.448c0.032-0.768 0.080-1.392 0.128-1.984l0.016-0.272c1.72-22.43 10.896-42.439 25.024-57.83l-0.064 0.070 0.032-0.048 0.304-0.32 1.28-1.376c1.088-1.136 2.224-2.272 3.36-3.376l1.376-1.28 0.32-0.288 0.048-0.048c6.176-5.6 13.008-10.4 20.336-14.24 5.952-3.171 9.935-9.338 9.935-16.434 0-8.711-6.001-16.021-14.095-18.019l-0.127-0.027c-30.318-7.424-56.408-22.538-76.972-43.164l-0.004-0.004c-13.99-13.966-25.441-30.469-33.605-48.762l-0.411-1.030c-1.446-2.947-3.13-6.907-4.646-10.949l-0.346-1.051c-4.608-11.616-7.376-20.736-8.272-33.2h352.368c-0.602 8.847-2.214 17.090-4.732 24.927l0.204-0.735c-3.184 10.096-7.888 19.936-13.968 31.632z" />
<glyph unicode="&#xe902;" glyph-name="ms" d="M887.902 58.819h-750.635c-40.294 0-73.071 32.596-73.071 72.662v627.429c0 40.071 32.778 72.663 73.071 72.663h152.457c31.751 0 72.626-16.833 95.078-39.157l58.248-57.924c11.315-11.244 37.128-21.875 53.118-21.875h391.729c40.299 0 73.076-32.6 73.076-72.663v-508.477c-0.005-40.061-32.778-72.658-73.071-72.658v0 0zM142.206 766.906c-7.35 0-13.553-6.153-13.553-13.433v-617.066c0-7.284 6.202-13.433 13.553-13.433h740.754c7.345 0 13.557 6.149 13.557 13.433v500.070c0 7.284-6.211 13.433-13.557 13.433h-386.571c-31.337 0-71.67 16.563-93.828 38.513l-57.481 56.964c-11.157 11.064-36.635 21.517-52.42 21.517l-150.454 0.001zM768.891 530.444c0-16.126-12.999-29.2-29.033-29.2h-454.063c-16.033 0-29.034 13.068-29.034 29.2v5.981c0 16.125 13 29.2 29.034 29.2h454.069c16.029 0 29.028-13.074 29.028-29.2v-5.981zM768.891 381.079c0-16.127-12.999-29.201-29.033-29.201h-454.063c-16.033 0-29.034 13.074-29.034 29.201v5.985c0 16.122 13 29.196 29.034 29.196h454.069c16.029 0 29.028-13.069 29.028-29.196v-5.985zM768.891 231.713c0-16.125-12.999-29.199-29.033-29.199h-454.063c-16.033 0-29.034 13.074-29.034 29.199v5.987c0 16.126 13 29.199 29.034 29.199h454.069c16.029 0 29.028-13.073 29.028-29.199v-5.987z" />
<glyph unicode="&#xe903;" glyph-name="newfile" d="M930.944 750.528h-386.688l-32.256 46.528c-33.024 61.376-41.664 93.12-93.056 93.12h-325.888c-51.392 0-93.056-41.664-93.056-93.12v-698.176c0-51.456 41.664-93.056 93.056-93.056h837.824c51.456 0 93.056 41.664 93.056 93.056v558.592c0.064 51.456-41.6 93.056-92.992 93.056zM750.016 338.304h-202.56v-202.432h-70.912v202.432h-202.432v69.952h202.432v202.56h70.976v-202.432h202.432v-70.080h0.064z" />
<glyph unicode="&#xe904;" glyph-name="qx" horiz-adv-x="1025" d="M292.629 62.811h-130.195c13.141 181.37 164.907 324.909 349.569 324.909 43.341 0 84.869-7.908 123.218-22.355l39.267 39.267c-2.040 0.903-4.075 1.81-6.133 2.681-11.345 4.799-22.853 9.049-34.501 12.76 18.548 10.671 35.812 23.852 51.35 39.39 46.264 46.264 71.742 107.775 71.742 173.202s-25.478 126.938-71.742 173.202c-46.264 46.264-107.775 71.742-173.202 71.742s-126.937-25.478-173.201-71.742c-46.264-46.264-71.742-107.775-71.742-173.202s25.478-126.938 71.742-173.202c15.538-15.538 32.802-28.718 51.35-39.39-11.649-3.712-23.156-7.962-34.501-12.76-47.832-20.232-90.785-49.189-127.664-86.068s-65.838-79.832-86.068-127.665c-20.952-49.536-31.575-102.14-31.575-156.352 0-14.129 11.453-25.584 25.584-25.584h156.702c14.13 0 25.584 11.454 25.584 25.584s-11.454 25.583-25.584 25.583zM318.227 632.664c0 106.849 86.927 193.776 193.776 193.776s193.776-86.928 193.776-193.776-86.928-193.776-193.776-193.776-193.776 86.928-193.776 193.776zM882.089 193.58c-18.228 43.096-43.561 82.212-75.368 116.513l-36.323-36.323c51.762-56.496 85.305-129.946 91.174-210.959h-130.222c-14.129 0-25.584-11.454-25.584-25.584s11.454-25.584 25.584-25.584h156.73c14.129 0 25.584 11.454 25.584 25.584 0 54.212-10.623 106.817-31.575 156.352zM791.548 408.987c-9.992 9.991-26.19 9.991-36.181 0l-244.12-244.12-107.032 107.031c-9.992 9.991-26.19 9.991-36.181 0s-9.991-26.19 0-36.181l125.123-125.122c4.996-4.995 11.542-7.493 18.091-7.493s13.095 2.498 18.091 7.493l262.211 262.211c9.989 9.99 9.989 26.19-0.002 36.181z" />
<glyph unicode="&#xe905;" glyph-name="update" d="M166.282 629.76l258.718 258.678c86.843 86.882 85.78 86.646 172.465 0l258.678-258.678c47.537-47.655 36.628-57.147-18.905-57.147h-128.315v-315.077c0-65.26-52.933-118.154-118.154-118.154h-157.538c-65.221 0-118.154 52.894-118.154 118.154v315.077h-130.087c-50.137 0-66.284 9.492-18.708 57.147zM945.231 218.151v-157.538c0-21.701-17.644-39.385-39.385-39.385h-787.692c-21.74 0-39.385 17.684-39.385 39.385v157.538h-78.769v-157.538c0-65.221 52.933-118.154 118.154-118.154h787.692c65.221 0 118.154 52.933 118.154 118.154v157.538h-78.769z" />
<glyph unicode="&#xe906;" glyph-name="xz" d="M12.459 223.915c-18.005-157.355-67.072-287.915 307.541-287.915 374.784 0 325.547 130.56 307.499 287.915-17.792 157.525-116.48 288.085-307.499 288.085s-289.707-130.56-307.541-288.085zM714.837 512c-54.229 0-99.84-10.965-138.837-28.672 67.712-61.525 112.043-148.48 124.928-255.616l4.821-35.712c8.704-62.165 17.92-130.645-9.387-191.573 6.4-0.128 11.947-0.427 18.475-0.427 361.941 0 314.539 116.053 297.131 256-17.408 139.989-112.64 256-297.131 256zM512 768c0 106.039-85.961 192-192 192s-192-85.961-192-192v0c2.269-104.307 87.361-187.995 192-187.995s189.731 83.688 191.996 187.784l0.004 0.211zM896 736c0 88.366-71.634 160-160 160s-160-71.634-160-160c0-88.336 71.586-159.951 159.91-160h0.005c88.383 0 160.037 71.624 160.085 159.995v0.005z" />
<glyph unicode="&#xe907;" glyph-name="error" d="M886.23 145.552l-333.873 333.873 333.143 333.142c5.512 5.171 9.003 12.467 9.003 20.622 0 15.655-12.691 28.346-28.346 28.346-7.781 0-14.822-3.145-19.943-8.22l-0.071 0.071-333.874-333.874-333.894 333.853c-5.118 5.045-12.131 8.171-19.885 8.171-15.655 0-28.346-12.691-28.346-28.346 0-7.754 3.127-14.767 8.172-19.885l-0.006-0.006 0.068-0.068c0.051-0.051 0.102-0.102 0.152-0.152l333.652-333.652-331.374-331.375c-6.833-5.175-11.315-13.296-11.315-22.528 0-15.655 12.691-28.346 28.346-28.346 7.955 0 15.12 3.298 20.269 8.575l0.288-0.288 333.873 333.873 333.776-333.776c5.135-5.175 12.246-8.386 20.112-8.386 15.655 0 28.346 12.69 28.346 28.346 0 7.816-3.166 14.892-8.283 20.020l0.009 0.010z" />
<glyph unicode="&#xe908;" glyph-name="right" d="M380 204q-12.992 0-22.016 8.992l-316 308q-10.016 8.992-10.016 22.496t8.992 23.008 22.496 9.504 22.496-8.992l294.016-286.016 576.992 574.016q10.016 8.992 23.008 8.992t22.496-9.504 9.504-22.496-8.992-23.008l-600-596q-10.016-8.992-23.008-8.992z" />
<glyph unicode="&#xe909;" glyph-name="begin2" d="M342.473 625.105l-0.012-337.082c0-40.561 45.643-66.423 80.775-45.449l294.372 168.127c35.193 21.008 35.193 70.146 0.22 91.026l-293.469 168.372c-35.317 19.331-80.143-5.11-81.885-44.994zM691.688 477.36c16.277-9.802 16.277-32.534-0.183-42.444l-271.141-156.167c-16.313-9.819-37.747 2.429-37.747 21.156v312.573c0.804 18.28 22.528 30.225 39.157 21.047l269.913-156.166zM504.164 916.705c-254.636 0-461.8-207.163-461.8-461.802s207.164-461.806 461.8-461.806c254.644 0 461.808 207.167 461.808 461.806s-207.164 461.802-461.808 461.802v0zM503.084-45.979c-276.778 0-501.957 225.177-501.957 501.963 0 276.782 225.178 501.959 501.957 501.959 276.786 0 501.965-225.177 501.965-501.959 0-276.786-225.178-501.963-501.965-501.963v0z" />
<glyph unicode="&#xe90a;" glyph-name="sx" d="M895.283 328.061c-50.624-159.092-199.564-274.346-375.43-274.346-217.55 0-393.91 176.361-393.91 393.91 0 217.553 176.361 393.91 393.91 393.91 128.869 0 243.275-61.892 315.141-157.564h-157.576c-14.505 0-26.261-11.759-26.261-26.261s11.756-26.259 26.261-26.259h210.086c14.5 0 26.259 11.756 26.259 26.259v210.086c0 14.503-11.759 26.261-26.259 26.261-14.503 0-26.261-11.759-26.261-26.261v-132.509c-81.891 97.088-204.432 158.771-341.39 158.771-246.558 0-446.433-199.874-446.433-446.433 0-246.556 199.874-446.431 446.433-446.431 203.345 0 374.929 135.955 428.831 321.923-15.654 14.176-38.325 20.739-53.401 4.943z" />
<glyph unicode="&#xe90b;" glyph-name="zt" d="M511.986-49.778c-274.475 0-497.778 223.303-497.778 497.778s223.303 497.778 497.778 497.778c274.489 0 497.806-223.303 497.806-497.778s-223.317-497.778-497.806-497.778zM511.986 917.333c-258.788 0-469.333-210.546-469.333-469.333 0-258.802 210.546-469.333 469.333-469.333 258.802 0 469.362 210.56 469.362 469.333 0 258.802-210.56 469.333-469.362 469.333zM404.907 646.372v0zM369.351 646.372h71.111v-396.715h-71.111v396.715zM619.093 646.372v0zM583.538 646.372h71.111v-396.715h-71.111v396.715z" />
<glyph unicode="&#xe90c;" glyph-name="list2" d="M0 768c0 35.346 28.456 64 64.056 64h895.888c35.377 0 64.056-28.407 64.056-64 0-35.346-28.456-64-64.056-64h-895.888c-35.377 0-64.056 28.407-64.056 64zM0 448c0 35.346 28.456 64 64.056 64h895.888c35.377 0 64.056-28.407 64.056-64 0-35.346-28.456-64-64.056-64h-895.888c-35.377 0-64.056 28.407-64.056 64zM0 128c0 35.346 28.456 64 64.056 64h895.888c35.377 0 64.056-28.407 64.056-64 0-35.346-28.456-64-64.056-64h-895.888c-35.377 0-64.056 28.407-64.056 64z" />
<glyph unicode="&#xe90d;" glyph-name="list1" d="M477.252 546.716c0-41.334-33.82-75.152-75.152-75.152h-267.108c-41.334 0-75.152 33.82-75.152 75.152v278.478c0 41.334 33.82 75.152 75.152 75.152h267.109c41.334 0 75.152-33.82 75.152-75.152v-278.478zM477.252 69.91c0-41.335-33.82-75.152-75.152-75.152h-267.108c-41.334 0-75.152 33.82-75.152 75.152v278.473c0 41.335 33.82 75.152 75.152 75.152h267.109c41.334 0 75.152-33.82 75.152-75.152v-278.473zM965.424 546.716c0-41.334-33.82-75.152-75.152-75.152h-267.122c-41.335 0-75.152 33.82-75.152 75.152v278.478c0 41.334 33.82 75.152 75.152 75.152h267.122c41.335 0 75.152-33.82 75.152-75.152v-278.478zM965.426 69.91c0-41.335-33.82-75.152-75.152-75.152h-267.124c-41.335 0-75.152 33.82-75.152 75.152v278.473c0 41.335 33.82 75.152 75.152 75.152h267.124c41.335 0 75.152-33.82 75.152-75.152v-278.473z" />
<glyph unicode="&#xe90e;" glyph-name="error1" d="M722.031 672.931l-203.536-203.536-203.535 203.536-15.096-15.104 203.536-203.536-203.536-203.536 15.096-15.113 203.535 203.545 203.536-203.545 15.096 15.113-203.536 203.536 203.536 203.545zM517.165 949.831c-273.657 0-495.513-221.857-495.513-495.504 0-273.711 221.856-495.576 495.513-495.576 273.693 0 495.559 221.865 495.559 495.576 0 273.647-221.865 495.504-495.559 495.504zM517.165-19.9c-261.868 0-474.164 212.305-474.164 474.227 0 261.85 212.296 474.164 474.164 474.164 261.904 0 474.209-212.314 474.209-474.164 0-261.922-212.305-474.227-474.209-474.227z" />
<glyph unicode="&#xe92f;" glyph-name="folder" d="M448 832l128-128h448v-704h-1024v832z" />
<glyph unicode="&#xe973;" glyph-name="user-plus" d="M384 224c0 151.234 95.874 280.486 230.032 330.2 16.28 36.538 25.968 77.164 25.968 117.8 0 159.058 0 288-192 288s-192-128.942-192-288c0-99.060 57.502-198.104 128-237.832v-52.78c-217.102-17.748-384-124.42-384-253.388h397.306c-8.664 30.53-13.306 62.732-13.306 96zM736 512c-159.058 0-288-128.942-288-288s128.942-288 288-288c159.056 0 288 128.942 288 288s-128.942 288-288 288zM896 192h-128v-128h-64v128h-128v64h128v128h64v-128h128v-64z" />
<glyph unicode="&#xe974;" glyph-name="user-minus" d="M384 224c0 151.234 95.874 280.486 230.032 330.2 16.28 36.538 25.968 77.164 25.968 117.8 0 159.058 0 288-192 288s-192-128.942-192-288c0-99.060 57.502-198.104 128-237.832v-52.78c-217.102-17.748-384-124.42-384-253.388h397.306c-8.664 30.53-13.306 62.732-13.306 96zM736 512c-159.058 0-288-128.942-288-288s128.942-288 288-288c159.056 0 288 128.942 288 288s-128.942 288-288 288zM896 192h-320v64h320v-64z" />
<glyph unicode="&#xea3a;" glyph-name="arrow-up2" d="M877.254 557.254l-320 320c-24.992 24.994-65.514 24.994-90.508 0l-320-320c-24.994-24.994-24.994-65.516 0-90.51 24.994-24.996 65.516-24.996 90.51 0l210.744 210.746v-613.49c0-35.346 28.654-64 64-64s64 28.654 64 64v613.49l210.746-210.746c12.496-12.496 28.876-18.744 45.254-18.744s32.758 6.248 45.254 18.746c24.994 24.994 24.994 65.514 0 90.508z" />
<glyph unicode="&#xea3e;" glyph-name="arrow-down2" d="M877.254 338.746l-320-320c-24.992-24.994-65.514-24.994-90.508 0l-320 320c-24.994 24.994-24.994 65.516 0 90.51 24.994 24.996 65.516 24.996 90.51 0l210.744-210.746v613.49c0 35.346 28.654 64 64 64s64-28.654 64-64v-613.49l210.746 210.746c12.496 12.496 28.876 18.744 45.254 18.744s32.758-6.248 45.254-18.746c24.994-24.994 24.994-65.514 0-90.508z" />
</font>
</defs>
</svg>
